[MagicStar] 秘密內幕 ~战斗吧! 派出所女子~ ハコヅメ〜たたかう!交番女子〜 EP02 [WEBDL] [1080p] [HULU]【生】【附日字】【V2】

动漫更新组 2月前 45


HD 1080p from HULU JAPAN.
alt text
alt text

General Unique ID                      : 57168434492253278410743235996303780036 (0x2B023D6FBCEFB3D6EA444DF3BCE068C4) Complete name                  : Hakozume.Tatakau.Kouban.Joshi.EP02.1080p.HULU.WEB-DL.AAC2.0.H.264.V2-MagicStar.mkv Format                         : Matroska Format version                 : Version 4 File size                      : 1.74 GiB Duration                       : 51 min 49 s Overall bit rate               : 4 799 kb/s Encoded date                   : UTC 2021-07-22 12:27:01 Writing application            : mkvmerge v50.0.0 ('Awakenings') 64-bit Writing library                : libebml v1.4.0 + libmatroska v1.6.2 Cover                          : Yes Attachments                    : cover.png  Video ID                             : 1 Format                         : AVC Format/Info                    : Advanced Video Codec Format profile                 : [email protected] Format settings                : CABAC / 3 Ref Frames Format settings, CABAC         : Yes Format settings, Reference fra : 3 frames Codec ID                       : V_MPEG4/ISO/AVC Duration                       : 51 min 48 s Bit rate mode                  : Constant Bit rate                       : 4 732 kb/s Width                          : 1 920 pixels Height                         : 1 080 pixels Display aspect ratio           : 16:9 Frame rate mode                : Constant Frame rate                     : 29.970 (29970/1000) FPS Original frame rate            : 29.970 (30000/1001) FPS Color space                    : YUV Chroma subsampling             : 4:2:0 Bit depth                      : 8 bits Scan type                      : Progressive Bits/(Pixel*Frame)             : 0.076 Stream size                    : 1.69 GiB (97%) Default                        : Yes Forced                         : No Color range                    : Limited Color primaries                : BT.709 Transfer characteristics       : BT.709 Matrix coefficients            : BT.709  Audio ID                             : 2 Format                         : AAC LC Format/Info                    : Advanced Audio Codec Low Complexity Codec ID                       : A_AAC-2 Duration                       : 51 min 49 s Bit rate                       : 125 kb/s Channel(s)                     : 2 channels Channel layout                 : L R Sampling rate                  : 48.0 kHz Frame rate                     : 46.875 FPS (1024 SPF) Compression mode               : Lossy Stream size                    : 46.5 MiB (3%) Language                       : Japanese Default                        : Yes Forced                         : No

下载地址:
最新回复 (0)
返回
发新帖